» » Various - Radio Daze: Pop Hits Of The '80s, Volume Three

Descargar Various - Radio Daze: Pop Hits Of The '80s, Volume Three

Lista de canciones

1Felix CavaliereOnly A Lonely Heart Sees3:53
2Benny MardonesInto The Night4:34
3Rocky BurnetteTired Of Toein' The Line3:45
4Ambrosia You're The Only Woman (You & I)4:19
5Al StewartMidnight Rocks3:58
6Larsen-Feiten BandWho Will Be The Fool Tonight4:15
7Pure Prairie LeagueLet Me Love You Tonight2:47
8Melissa ManchesterFire In The Morning3:55
9Robbie DupreeSteal Away3:31
10Ali ThomsonTake A Little Rhythm3:30
11Fred KnoblockWhy Not Me3:48
12Tommy TutoneAngel Say No3:13

Créditos

  • Art DirectionMonster X
  • Compilation ProducerDavid McLees, Gordon Pogoda
  • CoverJayme Odgers
  • Remastered ByBill Inglot, Ken Perry

Códigos de barras

  • Barcode (Text): 0 8122-71892-2 8

Empresas

  • Phonographic Copyright (p) – Rhino Records Inc.
  • Copyright (c) – Rhino Records Inc.

Información

80s Hits - Volume Three. Лента с персональными рекомендациями и музыкальными новинками, радио, подборки на любой вкус, удобное управление своей коллекцией. Исполнитель: Various artists. Contemporary PopRock Soft Rock Adult Contemporary Album Rock Prog-Rock. Tracks from Melissa Manchester, Ambrosia, and Pure Prairie League complete this enjoyable collection, which gives the '80s AM radio hits the same attention as the countless compilations of new wave singles provide. Radio Daze: Pop Hits of the 80s is a series of compilation albums released by Rhino Records in 1995, each featuring 12 soft rock hit recordings from the late 1970s and early 1980s. Five albums in the series were released. Many of the tracks reached the top 40 hits on the Billboard Hot 100 pop singles chart, with most making the Top 10 of the Billboard Hot Adult Contemporary Singles chart. Billy Preston & Syreeta With You I'm Born Again 03:42 - 11, 1979. Charlie Dore Pilot Of The Airwaves 03:22 - 02, 1980. Rupert Holmes Him 03:40 - 01, 1980. Tommy James Three Times In Love 04:33 - 12, 1979. Richie Furay I Still Have Dreams 03:27 - 09, 1979. Paul Davis Do Right 04:01 - 02, 1980. Ambrosia Biggest Part Of Me 05:28 - 03, 1980. Brothers Johnson Stomp 04:09 - 02, 1980. Photoglo We Were Meant To Be Lovers 03:38 - 03, 1980. Peaches & Herb I Pledge My Love 04:17 - 12, 1979. Volume One 01. Rupert Holmes, Escape The Pina Colada Song 03:56 02. Souther, You're Only Lonely 03:50 03. Bonnie Pointer, Heaven Must Have Sent You 03:24 04. Michael Johnson, This Night Won't Last Forever 03:42 05. Moon Martin, Rolene 03:39 06. The Dirt Band, An American Dream 03:37 07. Captain & Tennille, Do That To Me One More Time 03:53 08. Volume Three 01. Rocky Burnette, Tired Of Toein' The Line 03:45 02. Robbie Dupree, Steal Away 03:32 03. Ali Thomson, Take A Little Rhythm 03:30 04. Melissa Manchester, Fire In The Morning 03:56 05. Felix Cavaliere, Only A Lonely Heart Sees 03:53 06. Benny Mardones, Into The Night 04:34 07. RADIO DAZEPOP HITS OF THE 80'S, ARTISTS: Rhino Records is the retro compilation company that expertly bridges the gap between K-Tel kitschy various artists releases of the 70's and the NOW THAT'S WHAT I CALL MUSIC sampler series of today. Each volumn of RADIO DAZE contains a dozen pop 40 favorites from the decade that gave us legwarmers and spikey 'dos. Ex-Rascal leader Felix Cavaliere and a pre-stardom Vince Gill fronting Pure Prarie League, blue eyed soul wailer Benny Mardones, and son-of-retro-royalty Rocky Burnette all make welcome cameos here. A Further Extension Of Rhino Records' 5-CD, Radio Daze: Pop Hits Of The '80s Series. All Songs Selected & Continuously Mixed by DirkDigglinator Using Sony's Sound Forge Audio Studio 10. Uploaded To Mixcloud In 320 Kbps March 31, 2014. Full Cover Art Aviailable Here: Daze2528Revisited252925E2258025A2PopHitsOfThe252780s252CVolume. The Year Of The Cat - Live: Hollywood, New York 12 Nov '88. Princess Olivia - Live: Hollywood, New York 12 Nov '88. Radio Daze: Pop Hits of the '80s, Vol. Your Rating: Currently Stars. View all Radio Daze: Pop Hits of the '80s, Vol. 3 pictures. EAN: 0081227189228 UPC: 081227189228. for a movie Themes heist, drugs, kidnapping, coming of age Genre drama, parody, sci-fi, comedy Locations paris, submarine, new york. Listen free to Various Artists Radio Pop Hits 80s Take On Me, I Want to Know What Love Is Remastered and more. 30 tracks

Descargar Various - Radio Daze: Pop Hits Of The '80s, Volume Three

Artista: Various

Título: Radio Daze: Pop Hits Of The '80s, Volume Three

País: US

Fecha de publicación: 1995

Etiqueta: Rhino Records

Estilo: Ballad, Soft Rock, Pop Rock

Catálogo: R2 71892

Género: Rock / Pop

Tamaño MP3: 2195 mb

Tamaño FLAC: 1887 mb

Clasificación: 4.9 / 5

Votos: 593

Fuente de los registros: CD, Compilation, Remastered

Relacionado con los Various - Radio Daze: Pop Hits Of The '80s, Volume Three

Akisame
foobar2000 1.3.17 / Dynamic Range Meter 1.1.1
log date: 2018-09-13 20:11:31

--------------------------------------------------------------------------------
Analyzed: Radio Daze: Pop Hits Of The '80s, Volume Three
--------------------------------------------------------------------------------

DR Peak RMS Duration Track
--------------------------------------------------------------------------------
DR11 0.00 dB -13.46 dB 3:45 01-Tired Of Toein' The Line
DR11 0.00 dB -13.51 dB 3:32 02-Steal Away
DR13 0.00 dB -14.52 dB 3:30 03-Take A Little Rhythm
DR11 -0.13 dB -13.94 dB 3:56 04-Fire In The Morning
DR14 0.00 dB -16.38 dB 3:53 05-Only A Lonely Heart Sees
DR9 0.00 dB -12.78 dB 4:34 06-Into The Night
DR10 0.00 dB -12.96 dB 2:48 07-Let Me Love You Tonight
DR11 0.00 dB -13.79 dB 3:58 08-Midnight Rocks
DR12 0.00 dB -15.78 dB 3:49 09-Why Not Me
DR14 0.00 dB -16.10 dB 4:15 10-Who'll Be The Fool Tonight
DR11 0.00 dB -13.63 dB 3:14 11-Angel Say No
DR13 0.00 dB -15.08 dB 4:19 12-You're The Only Woman (You & I)
--------------------------------------------------------------------------------

Number of tracks: 12
Official DR value: DR12

Samplerate: 44100 Hz
Channels: 2
Bits per sample: 16
Bitrate: 938 kbps
Codec: ALAC
================================================================================
Akisame
foobar2000 1.3.17 / Dynamic Range Meter 1.1.1
log date: 2018-09-13 20:11:31

--------------------------------------------------------------------------------
Analyzed: Radio Daze: Pop Hits Of The '80s, Volume Three
--------------------------------------------------------------------------------

DR Peak RMS Duration Track
--------------------------------------------------------------------------------
DR11 0.00 dB -13.46 dB 3:45 01-Tired Of Toein' The Line
DR11 0.00 dB -13.51 dB 3:32 02-Steal Away
DR13 0.00 dB -14.52 dB 3:30 03-Take A Little Rhythm
DR11 -0.13 dB -13.94 dB 3:56 04-Fire In The Morning
DR14 0.00 dB -16.38 dB 3:53 05-Only A Lonely Heart Sees
DR9 0.00 dB -12.78 dB 4:34 06-Into The Night
DR10 0.00 dB -12.96 dB 2:48 07-Let Me Love You Tonight
DR11 0.00 dB -13.79 dB 3:58 08-Midnight Rocks
DR12 0.00 dB -15.78 dB 3:49 09-Why Not Me
DR14 0.00 dB -16.10 dB 4:15 10-Who'll Be The Fool Tonight
DR11 0.00 dB -13.63 dB 3:14 11-Angel Say No
DR13 0.00 dB -15.08 dB 4:19 12-You're The Only Woman (You & I)
--------------------------------------------------------------------------------

Number of tracks: 12
Official DR value: DR12

Samplerate: 44100 Hz
Channels: 2
Bits per sample: 16
Bitrate: 938 kbps
Codec: ALAC
================================================================================